Torrent Dükkanı, Torrent Oyun, Torrent Film, Torrent Dizi, Full İndir
Torrent Dükkanı Bilgilendirme

Torrent Dükkanı Vip Üyelik

Torrent Dükkanı Moderatör Başvurusu

Forum kuralları!

Merhaba! Forumlarımızda herhangi bir aktivitede bulunmadan önce, forum düzeni ve kalıcılığı için lütfen forum kurallarını okuyunuz.

Forum Kuralları
Bilgi? Yeni temamız aktif edilmiştir, iyi forumlar dileriz.
Sağolun! Gün geçtikçe büyüyor ve gelişiyoruz destek verenlere teşekkür ederiz.
Dikkat! Kurallara uymayan üyeler uyarılmaksızın siteden men edilecektir.
Süper:) Yeni kampanyalarımızla sizlere yenilikler katmaya devam ediyoruz.
 
Konuyu Oyla:
  • Derecelendirme: 0/5 - 0 oy
  • 1
  • 2
  • 3
  • 4
  • 5
12′den Vurmak - Gutshot Straigh (2014) BRRip HDTurk - Türkçe Dublaj - Torrent İndir
(Okunma: 1127)
TD Suspect Man
#1
BRRip 
7BdyGFO.jpg

j5MDH3b.png
Yapımı : 2014 - ABD
Tür : Gerilim
Yönetmen : Justin Steele
Oyuncular : Vinnie Jones ,  Steven Seagal ,  Annalynne McCord ,  Tia Carrere ,  Ted Levine
Senaryo : Jerry Rapp
Yapımcı : Tiago Mesquita ,  Ross Otterman
Diğer Adı : 12'den Vurmak

Bir kumarbaz, kolay yoldan zengin olma hevesiyle para ve güç dünyasının içine doğru sürüklenir. Ancak bir planın parçası olduğunu ve bunun hayatına mal olabileceğini çabucak anlayıp bu durumdan sıyrılmaya çalışır…
Kod:
Format                         : AVI
Format/Info                    : Audio Video Interleave
File size                      : 845 MiB
Duration                       : 1h 28mn
Overall bit rate               : 1 329 Kbps
Writing application            : Lavf55.12.100

Video
ID                             : 1
Format                         : MPEG-4 Visual
Format settings, BVOP          : No
Format settings, QPel          : No
Format settings, GMC           : No warppoints
Format settings, Matrix        : Default (H.263)
Codec ID                       : FMP4
Duration                       : 1h 28mn
Bit rate                       : 1 124 Kbps
Width                          : 720 pixels
Height                         : 306 pixels
Display aspect ratio           : 2.35:1
Frame rate                     : 23.976 fps
Color space                    : YUV
Chroma subsampling             : 4:2:0
Bit depth                      : 8 bits
Scan type                      : Progressive
Compression mode               : Lossy
Bits/(Pixel*Frame)             : 0.213
Stream size                    : 715 MiB (85%)
Writing library                : Lavc55.18.102

Audio
ID                             : 0
Format                         : MPEG Audio
Format version                 : Version 1
Format profile                 : Layer 3
Mode                           : Joint stereo
Mode extension                 : MS Stereo
Codec ID                       : 55
Codec ID/Hint                  : MP3
Duration                       : 1h 28mn
Bit rate mode                  : Constant
Bit rate                       : 192 Kbps
Channel(s)                     : 2 channels
Sampling rate                  : 44.1 KHz
Compression mode               : Lossy
Stream size                    : 122 MiB (14%)
Alignment                      : Aligned on interleaves
Interleave, duration           : 42 ms (1.00 video frame)
Writing library                : LAME3.99Ûu»hşÎJ~Ö
lFOnER3.png
3L3PO4.jpg
b6WeH2N.png


Q0G88mc.png
"Ekli Dosyalar" kısmından indirebilirsiniz.

Hide Post

Önemli Not: Lütfen indirdiğiniz torrentleri yükleme işlemi bittikten sonra seed (gönderme) ediniz.
Yorum yapmayı unutmayınız. Emeğe karşı istediklerimizi yapmak zor değil.
Ek Dosyalar
.torrent   [TD] 12′den Vurmak - Gutshot Straigh (2014) BRRip HDTurk - Türkçe Dublaj - Torrent İndir.torrent (Dosya Boyutu: 66.45 KB / İndirme Sayısı: 105)
Son Düzenleme: 11-04-2016, Saat: 23:33, Düzenleyen: TD Suspect Man
Cevapla
sutor13
#2
tesekkur
Cevapla
bluemavi79
#3
Teşekkürler.
Cevapla
lato
#4
teşekürler
Cevapla
aarslan
#5
Tesekurler
Cevapla
SÜMÜKLÜ
#6
eline sağlık
Cevapla
 


Anahtar Kelimeler

12′den Vurmak - Gutshot Straigh (2014) BRRip HDTurk - Türkçe Dublaj - Torrent İndir, 12′den Vurmak - Gutshot Straigh (2014) BRRip HDTurk - Türkçe Dublaj - Torrent İndir indir, 12′den Vurmak - Gutshot Straigh (2014) BRRip HDTurk - Türkçe Dublaj - Torrent İndir Videosu, 12′den Vurmak - Gutshot Straigh (2014) BRRip HDTurk - Türkçe Dublaj - Torrent İndir online izle, 12′den Vurmak - Gutshot Straigh (2014) BRRip HDTurk - Türkçe Dublaj - Torrent İndir Bedava indir, 12′den Vurmak - Gutshot Straigh (2014) BRRip HDTurk - Türkçe Dublaj - Torrent İndir Yükle, 12′den Vurmak - Gutshot Straigh (2014) BRRip HDTurk - Türkçe Dublaj - Torrent İndir Hakkında, 12′den Vurmak - Gutshot Straigh (2014) BRRip HDTurk - Türkçe Dublaj - Torrent İndir nedir, 12′den Vurmak - Gutshot Straigh (2014) BRRip HDTurk - Türkçe Dublaj - Torrent İndir Free indir, 12′den Vurmak - Gutshot Straigh (2014) BRRip HDTurk - Türkçe Dublaj - Torrent İndir oyunu, 12′den Vurmak - Gutshot Straigh (2014) BRRip HDTurk - Türkçe Dublaj - Torrent İndir download



Konu ile Alakalı Benzer Konular
Konular Yazar Yorumlar Okunma Son Yorum
Bdrip Morgan 2016 TR BDRip AC3 x264 Türkçe Dublaj Torrent İndir TD MĀçĀ ₭ıƵı 3 2,070 3 saat önce
Son Yorum: iffoadams
BRRip Gece Tarifesi - Night Fare 2015 Türkçe Dublaj BRRİP Torrent İndir TD ZeusunOğlu 5 215 Dün, Saat: 17:23
Son Yorum: herqul
720p Yeniden Doğuş - Rebirth (2016) - 720p - Türkçe Dublaj - Torrent İndir TD Suspect Man 14 1,293 Dün, Saat: 13:22
Son Yorum: yasinmetinballi
BRRip Karanlık Sular - The Shallows (2016) - BRRip - Türkçe Dublaj -Torrent İndir TD Suspect Man 29 1,713 Dün, Saat: 13:20
Son Yorum: yasinmetinballi
Bdrip Korku Seansı 2 - The Conjuring 2 (2016) - BDRip - Türkçe Dublaj -Torrent İndir TD Suspect Man 31 1,552 Dün, Saat: 13:20
Son Yorum: yasinmetinballi

Hızlı Menü:


Konuyu Okuyanlar: 1 Ziyaretçi