Torrent Dükkanı, Torrent Oyun, Torrent Film, Torrent Dizi, Full İndir


Forum kuralları!

Merhaba! Forumlarımızda herhangi bir aktivitede bulunmadan önce, forum düzeni ve kalıcılığı için lütfen forum kurallarını okuyunuz.

Forum Kuralları
Bilgi? Sitede Önemli Değişiklik Ve Farklılıklar. Herkesin Okumasında Fayda Var! ["TIKLAYINIZ."]
#BaşvuruYap Yetkili Alımları Başlamıştır! Sitede Görevli Olmak İsteyen Arkadaşlar Konuyu İnceleyebilir, Detaylar İçin: ["TIKLAYINIZ."]
Süper:) VİP Üyelik Ayrıcalıklarından Yararlanmak İçin Buraya! Ömür Boyu VİP Üye Olabilirsiniz Detaylar Konumuzda: ["TIKLAYINIZ."]
Dikkat! Emeklere Karşılık Olarak Konulara Yorumlarını Eksik Etmeyiniz. Kurallara Uymayanlar Siteden Men Edilecektir! Torrentleri Seed Ediniz.!

 
Konuyu Oyla:
  • Derecelendirme: 4/5 - 1 oy
  • 1
  • 2
  • 3
  • 4
  • 5
5. Dalga - The 5th Wave (2016) - HDRip XviD HDTurk - Türkçe Altyazılı - Torrent İndir
(Okunma: 6486)
TD Suspect Man
#1
HDRip 
KlcSNLi.jpg

j5MDH3b.png
Vizyon Tarihi: 04 Mart 2016
Yapımı : 2016 - ABD
Tür : Bilim Kurgu
Yönetmen : J Blakeson
Oyuncular : Chloë Grace Moretz ,  Nick Robinson ,  Alex Roe ,  Liev Schreiber ,  Zackary Arthur
Senaryo : Susannah Grant
Yapımcı : Tobey Maguire ,  Graham King
Diğer Adı : The Fifth Wave, Beşinci Dalga

Dünya dışı varlıklar (Others) tarafından gerçekleştirilen 4 saldırı dalgası, bütün dünyayı alt üst etmiştir. İlk dalgada dünya elektriksiz kalmış, ikinci dalgada tsunamilerle kelimenin gerçek anlamıyla yer yerinden oynamış, üçüncü dalgada ise salgın hastalık milyarlarca insanı kırıp geçirmiştir. Dördüncü dalgada insan formuna bürünmüş saldırganlar, dünyanın geri kalan insanlarını teker teker ortadan kaldırmaya başlamışlardır. Geride kalan çok çok az insan için karşıdaki kişiye güvenmek imkansız bir hale gelmiştir.
5. dalga artık kaçınılmazdır ve 16 yaşındaki Cassie Sullivan'ın (Chloe Grace Moretz) tek amacı, Diğerleri'nin eline düşmüş olan kardeşi Sammy'i kurtarmaktır. Bu esnada tanıştığı Evan Walker'a (Alex Roe) ister istemez güvenmek zorunda kalacaktır.
Film, 2013 yılında Rick Yancey'nin yazdığı aynı adlı çok satan kitaptan uyarlandı.
Kod:
Video
ID                                       : 0
Format                                   : MPEG-4 Visual
Format profile                           : Advanced Simple@L5
Format settings, BVOP                    : 2
Format settings, QPel                    : No
Format settings, GMC                     : No warppoints
Format settings, Matrix                  : Default (H.263)
Muxing mode                              : Packed bitstream
Codec ID                                 : XVID
Codec ID/Hint                            : XviD
Duration                                 : 1h 47mn
Bit rate                                 : 1 433 Kbps
Width                                    : 720 pixels
Height                                   : 304 pixels
Display aspect ratio                     : 2.35:1
Frame rate                               : 25.000 fps
Color space                              : YUV
Chroma subsampling                       : 4:2:0
Bit depth                                : 8 bits
Scan type                                : Progressive
Compression mode                         : Lossy
Bits/(Pixel*Frame)                       : 0.262
Stream size                              : 1.08 GiB (76%)
Writing library                          : XviD 66

Audio
ID                                       : 1
Format                                   : AC-3
Format/Info                              : Audio Coding 3
Mode extension                           : CM (complete main)
Format settings, Endianness              : Big
Codec ID                                 : 2000
Duration                                 : 1h 47mn
Bit rate mode                            : Constant
Bit rate                                 : 448 Kbps
Channel(s)                               : 6 channels
Channel positions                        : Front: L C R, Side: L R, LFE
Sampling rate                            : 48.0 KHz
Frame rate                               : 31.250 fps (1536 spf)
Compression mode                         : Lossy
Stream size                              : 345 MiB (24%)
Alignment                                : Aligned on interleaves
Interleave, duration                     : 40 ms (1.00 video frame)
Interleave, preload duration             : 512 ms
lFOnER3.png
34688622681993707671.png
26049140838921852528.png
b6WeH2N.png


Q0G88mc.png
"Ekli Dosyalar" kısmından indirebilirsiniz.

Hide Post

dling.gif

Önemli Not: Lütfen indirdiğiniz torrentleri yükleme işlemi bittikten sonra seed (gönderme) ediniz.
Yorum yapmayı unutmayınız. Emeğe karşı istediklerimizi yapmak zor değil.
Ek Dosyalar
.torrent   [TD] 5. Dalga - The 5th Wave (2016) - HDRip XviD HDTurk - Türkçe Altyazılı - Torrent İndir.torrent (Dosya Boyutu: 14.83 KB / İndirme Sayısı: 673)
Son Düzenleme: 21-03-2016, Saat: 01:11, Düzenleyen: TD Suspect Man
Cevapla
TD Eneshackingž™
#2
Teşekkürler
SylI9jU.png
Ara
Cevapla
mesutt53
#3
teşekkürler
Ara
Cevapla
srtsng
#4
Teşekkürler ellerine sağlık
Ara
Cevapla
mysr07
#5
teşekkürler
Ara
Cevapla
bluemavi79
#6
Teşekkürler.
Ara
Cevapla
mefeba
#7
teşekkürler
Ara
Cevapla
pirate089
#8
TEŞEKKÜRLER
Ara
Cevapla
bekarqxx
#9
teşekkürler
Ara
Cevapla
samed1907
#10
teşekkürler
Ara
Cevapla
 


Anahtar Kelimeler

5. Dalga - The 5th Wave (2016) - HDRip XviD HDTurk - Türkçe Altyazılı - Torrent İndir, 5. Dalga - The 5th Wave (2016) - HDRip XviD HDTurk - Türkçe Altyazılı - Torrent İndir indir, 5. Dalga - The 5th Wave (2016) - HDRip XviD HDTurk - Türkçe Altyazılı - Torrent İndir Videosu, 5. Dalga - The 5th Wave (2016) - HDRip XviD HDTurk - Türkçe Altyazılı - Torrent İndir online izle, 5. Dalga - The 5th Wave (2016) - HDRip XviD HDTurk - Türkçe Altyazılı - Torrent İndir Bedava indir, 5. Dalga - The 5th Wave (2016) - HDRip XviD HDTurk - Türkçe Altyazılı - Torrent İndir Yükle, 5. Dalga - The 5th Wave (2016) - HDRip XviD HDTurk - Türkçe Altyazılı - Torrent İndir Hakkında, 5. Dalga - The 5th Wave (2016) - HDRip XviD HDTurk - Türkçe Altyazılı - Torrent İndir nedir, 5. Dalga - The 5th Wave (2016) - HDRip XviD HDTurk - Türkçe Altyazılı - Torrent İndir Free indir, 5. Dalga - The 5th Wave (2016) - HDRip XviD HDTurk - Türkçe Altyazılı - Torrent İndir oyunu, 5. Dalga - The 5th Wave (2016) - HDRip XviD HDTurk - Türkçe Altyazılı - Torrent İndir download



Konu ile Alakalı Benzer Konular
Konular Yazar Yorumlar Okunma Son Yorum
HDRip Ninja Kaplumbağalar: Gölgelerin İçinden - TÜRKÇE ALTYAZILI - XVİD - TORRENT İNDİR RAZOR 1911 147 4,523 20-01-2017, Saat: 23:00
Son Yorum: @23ergun
  Ex Machina (2015) - 720p - Türkçe Altyazılı - Torrent İndir ultrAslan 7 6,821 15-01-2017, Saat: 20:45
Son Yorum: schutzenqel
Cam WARCRAFT: İKİ DÜNYANIN İLK KARŞILAŞMASI (2016) - TÜRKÇE ALTYAZILI Torrent İndir TD MĀçĀ ₭ıƵı 21 4,559 09-01-2017, Saat: 15:59
Son Yorum: 26androit26
HDRip STAR TREK: SONSUZLUK (2016) - TÜRKÇE ALTYAZILI - HDRİP XVİD - TORRENT İNDİR RAZOR 1911 173 3,866 06-01-2017, Saat: 01:43
Son Yorum: smryna035
1080p Hobbit: Smaug'un Çorak Toprakları (2013) - 1080p - Türkçe Altyazılı - Torrent İndir ultrAslan 6 5,975 05-12-2016, Saat: 00:18
Son Yorum: harbles

Hızlı Menü:


Konuyu Okuyanlar: 1 Ziyaretçi