Torrent Dükkanı, Torrent Oyun, Torrent Film, Torrent Dizi, Full İndir
mod başvuru

İndirme Limiti Kalkmıştır

Forum kuralları!

Merhaba! Forumlarımızda herhangi bir aktivitede bulunmadan önce, forum düzeni ve kalıcılığı için lütfen forum kurallarını okuyunuz.

Forum Kuralları
Bilgi? Sitede Önemli Değişiklik Ve Farklılıklar. Herkesin Okumasında Fayda Var! ["TIKLAYINIZ."]
#BaşvuruYap Yetkili Alımları Başlamıştır! Sitede Görevli Olmak İsteyen Arkadaşlar Konuyu İnceleyebilir, Detaylar İçin: ["TIKLAYINIZ."]
Süper:) VİP Üyelik Ayrıcalıklarından Yararlanmak İçin Buraya! Ömür Boyu VİP Üye Olabilirsiniz Detaylar Konumuzda: ["TIKLAYINIZ."]
Dikkat! Emeklere Karşılık Olarak Konulara Yorumlarını Eksik Etmeyiniz. Kurallara Uymayanlar Siteden Men Edilecektir! Torrentleri Seed Ediniz.!

 
Konuyu Oyla:
  • Derecelendirme: 0/5 - 0 oy
  • 1
  • 2
  • 3
  • 4
  • 5
Aile İşi - West End (2014) - BRRip XviD HDTurk - Türkçe Dublaj - Torrent İndir
(Okunma: 884)
TD Suspect Man
#1
BRRip 
T8Hunvk.jpg

j5MDH3b.png
Kirli işleri meslek edinmiş ailesinden kaçan Vic Trevi on yıl sonra gizli bir FBI ajanı olarak geri döner. Ailesi Vic’in bu sırrını ortaya çıkarmadan, kendisi onların sırlarını öğrenmelidir. Vic ailesine ihanet edec*ek midir?
Kod:
General
Complete name                            : C:\Users\eigenaar\Downloads\Aile işi – West End 2014 TR BRRip XviD -HD.avi
Format                                   : AVI
Format/Info                              : Audio Video Interleave
File size                                : 1 014 MiB
Duration                                 : 1h 23mn
Overall bit rate                         : 1 687 Kbps
Writing application                      : VirtualDubMod 1.5.10.2 (build 2540/release)
Writing library                          : VirtualDubMod build 2540/release

Video
ID                                       : 0
Format                                   : MPEG-4 Visual
Format profile                           : Advanced Simple@L5
Format settings, BVOP                    : 2
Format settings, QPel                    : No
Format settings, GMC                     : No warppoints
Format settings, Matrix                  : Custom
Codec ID                                 : XVID
Codec ID/Hint                            : XviD
Duration                                 : 1h 23mn
Bit rate                                 : 1 550 Kbps
Width                                    : 720 pixels
Height                                   : 400 pixels
Display aspect ratio                     : 16:9
Frame rate                               : 25.000 fps
Color space                              : YUV
Chroma subsampling                       : 4:2:0
Bit depth                                : 8 bits
Scan type                                : Progressive
Compression mode                         : Lossy
Bits/(Pixel*Frame)                       : 0.215
Stream size                              : 931 MiB (92%)
Writing library                          : XviD 67

Audio
ID                                       : 1
Format                                   : MPEG Audio
Format version                           : Version 1
Format profile                           : Layer 3
Mode                                     : Joint stereo
Mode extension                           : MS Stereo
Codec ID                                 : 55
Codec ID/Hint                            : MP3
Duration                                 : 1h 23mn
Bit rate mode                            : Constant
Bit rate                                 : 128 Kbps
Channel(s)                               : 2 channels
Sampling rate                            : 48.0 KHz
Compression mode                         : Lossy
Stream size                              : 76.9 MiB (8%)
Alignment                                : Aligned on interleaves
Interleave, duration                     : 40 ms (1.00 video frame)
Interleave, preload duration             : 504 ms
lFOnER3.png
rMDqJN.jpg
b6WeH2N.png


Q0G88mc.png
"Ekli Dosyalar" kısmından indirebilirsiniz.

[hide]Filmi indirmek için TIKLAYINIZ.
En son filmleri ilk önce indirmek için "VİP" üye olunuz![/hide]

Önemli Not: Lütfen indirdiğiniz torrentleri yükleme işlemi bittikten sonra seed (gönderme) ediniz.
Yorum yapmayı unutmayınız. Emeğe karşı istediklerimizi yapmak zor değil.
Ek Dosyalar
.torrent   [TD] Aile İşi - West End (2014) - BRRip XviD HDTurk - Türkçe Dublaj - Torrent İndir.torrent (Dosya Boyutu: 20.22 KB / İndirme Sayısı: 53)
Son Düzenleme: 23-04-2016, Saat: 15:55, Düzenleyen: TD Suspect Man
Cevapla
bluemavi79
#2
Teşekkürler.
Ara
Cevapla
 


Anahtar Kelimeler

Aile İşi - West End (2014) - BRRip XviD HDTurk - Türkçe Dublaj - Torrent İndir, Aile İşi - West End (2014) - BRRip XviD HDTurk - Türkçe Dublaj - Torrent İndir indir, Aile İşi - West End (2014) - BRRip XviD HDTurk - Türkçe Dublaj - Torrent İndir Videosu, Aile İşi - West End (2014) - BRRip XviD HDTurk - Türkçe Dublaj - Torrent İndir online izle, Aile İşi - West End (2014) - BRRip XviD HDTurk - Türkçe Dublaj - Torrent İndir Bedava indir, Aile İşi - West End (2014) - BRRip XviD HDTurk - Türkçe Dublaj - Torrent İndir Yükle, Aile İşi - West End (2014) - BRRip XviD HDTurk - Türkçe Dublaj - Torrent İndir Hakkında, Aile İşi - West End (2014) - BRRip XviD HDTurk - Türkçe Dublaj - Torrent İndir nedir, Aile İşi - West End (2014) - BRRip XviD HDTurk - Türkçe Dublaj - Torrent İndir Free indir, Aile İşi - West End (2014) - BRRip XviD HDTurk - Türkçe Dublaj - Torrent İndir oyunu, Aile İşi - West End (2014) - BRRip XviD HDTurk - Türkçe Dublaj - Torrent İndir download



Konu ile Alakalı Benzer Konular
Konular Yazar Yorumlar Okunma Son Yorum
HDRip Affetmek - 2015 - hdrip - x264 - Türkçe Dublaj - Torrent İndir TD TavukSuyunaÇorba 0 18 7 saat önce
Son Yorum: TD TavukSuyunaÇorba
Web-dl Ölümcül Fırtına - Deadly Voltage (2015) - WEB-DL - Türkçe Dublaj - Torrent İndir emir26han99 2 193 Dün, Saat: 18:24
Son Yorum: TD Suspect Man
BRRip Örümceğin Maskesi - 2001 - BRRip - Türkçe Dublaj - Torrent İndir TD TavukSuyunaÇorba 3 158 23-03-2017, Saat: 21:08
Son Yorum: lavinya73
Bluray 100 Sokak - 100 Streets - 2016 - 1080p - BluRay - Türkçe Dublaj - Torrent İndir TD TavukSuyunaÇorba 2 109 23-03-2017, Saat: 18:23
Son Yorum: madmayk
BRRip Prestij - The Prestige (2006) - BRRip XviD - Türkçe Dublaj - Torrent İndir TD Suspect Man 1 115 22-03-2017, Saat: 15:07
Son Yorum: lato

Hızlı Menü:


Konuyu Okuyanlar: 1 Ziyaretçi