Torrent Dükkanı, Torrent Oyun, Torrent Film, Torrent Dizi, Full İndir
Torrent Dükkanı Bilgilendirme

Torrent Dükkanı Vip Üyelik

Torrent Dükkanı Moderatör Başvurusu

Forum kuralları!

Merhaba! Forumlarımızda herhangi bir aktivitede bulunmadan önce, forum düzeni ve kalıcılığı için lütfen forum kurallarını okuyunuz.

Forum Kuralları
Bilgi? Yeni temamız aktif edilmiştir, iyi forumlar dileriz.
Sağolun! Gün geçtikçe büyüyor ve gelişiyoruz destek verenlere teşekkür ederiz.
Dikkat! Kurallara uymayan üyeler uyarılmaksızın siteden men edilecektir.
Süper:) Yeni kampanyalarımızla sizlere yenilikler katmaya devam ediyoruz.
 
Konuyu Oyla:
  • Derecelendirme: 0/5 - 0 oy
  • 1
  • 2
  • 3
  • 4
  • 5
Bir Yunusun Hikayesi (2011) - BRRip XviD HDTurk - Türkçe Dublaj - Torrent İndir
(Okunma: 1088)
TD Suspect Man
#1
BRRip 
XGQbBHN.jpg

j5MDH3b.png
Yapımı : 2011 - ABD
Tür : Aile ,  Dram
Süre: 113 Dak.
Yönetmen : Charles Martin Smith
Oyuncular : Morgan Freeman ,  Ashley Judd ,  Kris Kristofferson ,  Harry Connick Jr. ,  Austin Highsmith
Senaryo : Charles Martin Smith ,  Karen Janszen ,  Noam Dromi
Yapımcı : Andrew A. Kosove ,  Robert Engelman
Diğer Adı : Dostluğun Gücü

Winter isimli bir yunusun gerçek hikayesine dayanacak olan filmde, yengeç kapanına kuyruğu sıkışan yunusu kurtaran 11 yaşındaki bir çocuk ve onun ailesi arasında geçen film, yunus ve çocuk arasında oluşan dostluğa odaklanacak.
Freeman’ın yunusa tekrar yüzme yeteneğini kazandıracak doktoru canlandıracağı filmde, Connick Jr. deniz biyoloğunu, Judd ise anneyi canlandıracak.
Kod:
Format                         : Matroska
Format version                 : Version 4 / Version 2
File size                      : 697 MiB
Duration                       : 1h 52mn
Overall bit rate               : 865 Kbps
Encoded date                   : UTC 2016-03-25 08:06:16
Writing application            : mkvmerge v8.9.0 ('Father Daughter') 32bit
Writing library                : libebml v1.3.3 + libmatroska v1.4.4
DURATION                       : 01:52:39.456000000
NUMBER_OF_FRAMES               : 281644
NUMBER_OF_BYTES                : 108151296
_STATISTICS_WRITING_APP        : mkvmerge v8.9.0 ('Father Daughter') 32bit
_STATISTICS_WRITING_DATE_UTC   : 2016-03-25 08:06:16
_STATISTICS_TAGS               : BPS DURATION NUMBER_OF_FRAMES NUMBER_OF_BYTES

Video
ID                             : 1
Format                         : MPEG-4 Visual
Format profile                 : Advanced Simple@L5
Format settings, BVOP          : 2
Format settings, QPel          : No
Format settings, GMC           : No warppoints
Format settings, Matrix        : Custom
Muxing mode                    : Packed bitstream
Codec ID                       : V_MS/VFW/FOURCC / XVID
Codec ID/Hint                  : XviD
Duration                       : 1h 52mn
Bit rate                       : 719 Kbps
Width                          : 672 pixels
Height                         : 384 pixels
Display aspect ratio           : 16:9
Frame rate mode                : Constant
Frame rate                     : 23.976 fps
Color space                    : YUV
Chroma subsampling             : 4:2:0
Bit depth                      : 8 bits
Scan type                      : Progressive
Compression mode               : Lossy
Bits/(Pixel*Frame)             : 0.116
Stream size                    : 580 MiB (83%)
Title                          :
Writing library                : XviD 1.1.2 (UTC 2006-11-01)
Default                        : Yes
Forced                         : No

Audio
ID                             : 2
Format                         : MPEG Audio
Format version                 : Version 1
Format profile                 : Layer 3
Mode                           : Joint stereo
Mode extension                 : MS Stereo
Codec ID                       : A_MPEG/L3
Codec ID/Hint                  : MP3
Duration                       : 1h 52mn
Bit rate mode                  : Constant
Bit rate                       : 128 Kbps
Channel(s)                     : 2 channels
Sampling rate                  : 48.0 KHz
Compression mode               : Lossy
Stream size                    : 103 MiB (15%)
Title                          :
Writing library                : LAME3.98.4
Default                        : Yes
Forced                         : No
lFOnER3.png
1vEBvD.jpg
b6WeH2N.png


Q0G88mc.png
"Ekli Dosyalar" kısmından indirebilirsiniz.

Hide Post

Önemli Not: Lütfen indirdiğiniz torrentleri yükleme işlemi bittikten sonra seed (gönderme) ediniz.
Yorum yapmayı unutmayınız. Emeğe karşı istediklerimizi yapmak zor değil.
Ek Dosyalar
.torrent   [TD] Bir Yunusun Hikayesi (2011) - BRRip XviD HDTurk - Türkçe Dublaj - Torrent İndir.torrent (Dosya Boyutu: 54.86 KB / İndirme Sayısı: 103)
Son Düzenleme: 29-03-2016, Saat: 07:48, Düzenleyen: TD Suspect Man
Cevapla
Hataylı31
#2
teşekkürler
Ara
Cevapla
SeaQue
#3
Passkey resetlendiği icin bu sunumu indiremezsiniz, sitenin alındığı hdturk.org indirebilirsiniz
Ara
Cevapla
 


Anahtar Kelimeler

Bir Yunusun Hikayesi (2011) - BRRip XviD HDTurk - Türkçe Dublaj - Torrent İndir, Bir Yunusun Hikayesi (2011) - BRRip XviD HDTurk - Türkçe Dublaj - Torrent İndir indir, Bir Yunusun Hikayesi (2011) - BRRip XviD HDTurk - Türkçe Dublaj - Torrent İndir Videosu, Bir Yunusun Hikayesi (2011) - BRRip XviD HDTurk - Türkçe Dublaj - Torrent İndir online izle, Bir Yunusun Hikayesi (2011) - BRRip XviD HDTurk - Türkçe Dublaj - Torrent İndir Bedava indir, Bir Yunusun Hikayesi (2011) - BRRip XviD HDTurk - Türkçe Dublaj - Torrent İndir Yükle, Bir Yunusun Hikayesi (2011) - BRRip XviD HDTurk - Türkçe Dublaj - Torrent İndir Hakkında, Bir Yunusun Hikayesi (2011) - BRRip XviD HDTurk - Türkçe Dublaj - Torrent İndir nedir, Bir Yunusun Hikayesi (2011) - BRRip XviD HDTurk - Türkçe Dublaj - Torrent İndir Free indir, Bir Yunusun Hikayesi (2011) - BRRip XviD HDTurk - Türkçe Dublaj - Torrent İndir oyunu, Bir Yunusun Hikayesi (2011) - BRRip XviD HDTurk - Türkçe Dublaj - Torrent İndir download



Konu ile Alakalı Benzer Konular
Konular Yazar Yorumlar Okunma Son Yorum
BRRip Ayı Kardeşler Kurtarma Operasyonu (2014) BRRip XviD - Türkçe Dublaj - Torrent İndir stei 3 124 2 saat önce
Son Yorum: emin_ozer
Video Kutu Cüceleri : Yaratıklar Aramızda (2014) - BDRip - Türkçe Dublaj - Torrent İndir TD Suspect Man 18 9,229 2 saat önce
Son Yorum: emin_ozer
BRRip 6 Süper Kahraman - Big Hero 6 (2014) - BRRip XviD - Türkçe Dublaj - Torrent İndir TD Suspect Man 34 16,511 2 saat önce
Son Yorum: emin_ozer
HDRip 7 Cüceler - Der 7bte Zwerg (2014) - HDRip XviD - Türkçe Dublaj - Torrent İndir TD Suspect Man 20 5,828 2 saat önce
Son Yorum: emin_ozer
BRRip Çılgın Dostlar 4: Korkak Kahraman (2015) BRRip HDTurk - Türkçe Dublaj - Torrent İndir TD Suspect Man 33 6,107 2 saat önce
Son Yorum: emin_ozer

Hızlı Menü:


Konuyu Okuyanlar: 1 Ziyaretçi