Torrent Dükkanı, Torrent Oyun, Torrent Film, Torrent Dizi, Full İndir
mod başvuru

İndirme Limiti Kalkmıştır

Forum kuralları!

Merhaba! Forumlarımızda herhangi bir aktivitede bulunmadan önce, forum düzeni ve kalıcılığı için lütfen forum kurallarını okuyunuz.

Forum Kuralları
Bilgi? Sitede Önemli Değişiklik Ve Farklılıklar. Herkesin Okumasında Fayda Var! ["TIKLAYINIZ."]
#BaşvuruYap Yetkili Alımları Başlamıştır! Sitede Görevli Olmak İsteyen Arkadaşlar Konuyu İnceleyebilir, Detaylar İçin: ["TIKLAYINIZ."]
Süper:) VİP Üyelik Ayrıcalıklarından Yararlanmak İçin Buraya! Ömür Boyu VİP Üye Olabilirsiniz Detaylar Konumuzda: ["TIKLAYINIZ."]
Dikkat! Emeklere Karşılık Olarak Konulara Yorumlarını Eksik Etmeyiniz. Kurallara Uymayanlar Siteden Men Edilecektir! Torrentleri Seed Ediniz.!

 
Konuyu Oyla:
  • Derecelendirme: 2/5 - 1 oy
  • 1
  • 2
  • 3
  • 4
  • 5
Dabbe 6 (2015) - CamRip AAC HDTurk - Yerli Film - Torrent İndir - Torrent Film İndir
(Okunma: 4153)
TD Suspect Man
#1
Cam 
M6W95FE.png

dabbe 6 torrent indir, dabbe 6 torrent film indir, dabbe 6 zehr-i mezar torrent, dabbe 6 zehr-i mezar film indir, dabbe 6 torrent full indir
j5MDH3b.png
Vizyon Tarihi: 11 Eylül 2015
Yapımı : 2015 - Türkiye
Tür : Korku
Süre: 160 Dak.
Yönetmen : Hasan Karacadağ
Oyuncular : Murat Seviş ,  Sema Şimşek ,  Nilay Gök ,  Fehmi Karaarslan
Diğer Adı : dabbe 6 zehr-i mezar

Dabbe serisi ile yerli korku sinema türünü damgasını vuran Hasan Karacadağ, hepsi cin temalı olan Dabbe filmlerine bir yenisini daha ekliyor. Serinin devam filminde en tehlikeli cin kabilesi olarak kabul edilen Cuhenna kabilesi beyazperdeye aktarılıyor. Filmin başrollerinde Murat Seviş, Sema Şimşek, Nilay Gök ve Fehmi Karaarslan yer alıyor.

Doktor olan Zeren ve kız kardeşi Ayla annelerinin bir gece aniden ölmesiyle sarsılır. Kriminal ve adli raporlara göre anneleri Mukadder beyin kanamasıyla ölmüştür fakat annesi öldüğünde onun yanında olan Ayla, bu durumu kabul etmemektedir. Ona göre annesi, ne olduğunu anlayamadığı çok hızlı hareket eden, kapkara yüzleri olan, bilinmeyen bir dilde konuşan, devasa kara varlıklar tarafından öldürülmüştür. Ancak olayı inceleyenler Ayla’nın bir tür psikolojik travma geçirdiğini ve kısa sürede bu durumu atlatacağını düşünürler. Ama günler geçtikçe Ayla kişilik değiştirmeye ve söz konusu varlıklar tarafından saldırıya uğramaya başlar. Ayla’yı başka bir aleme götürmeye ve ona işkence ederek, annesinin ölümüyle ilgili bir takım sırları göstermeye çalışan bu varlıklar kimdir?
Kod:
General
Complete name                            : /home/emre/data/Dabbe.6.2015.CamRip.mp4
Format                                   : MPEG-4
Format profile                           : Base Media
Codec ID                                 : isom
File size                                : 1.24 GiB
Duration                                 : 2h 28mn
Overall bit rate                         : 1 199 Kbps
Writing application                      : Lavf57.20.100

Video
ID                                       : 1
Format                                   : AVC
Format/Info                              : Advanced Video Codec
Format profile                           : Baseline@L1.3
Format settings, CABAC                   : No
Format settings, ReFrames                : 1 frame
Format settings, GOP                     : M=1, N=12
Codec ID                                 : avc1
Codec ID/Info                            : Advanced Video Coding
Duration                                 : 2h 28mn
Bit rate                                 : 1 063 Kbps
Width                                    : 424 pixels
Height                                   : 232 pixels
Display aspect ratio                     : 1.85:1
Frame rate mode                          : Constant
Frame rate                               : 29.970 fps
Color space                              : YUV
Chroma subsampling                       : 4:2:0
Bit depth                                : 8 bits
Scan type                                : Progressive
Bits/(Pixel*Frame)                       : 0.361
Stream size                              : 1.10 GiB (89%)

Audio
ID                                       : 2
Format                                   : AAC
Format/Info                              : Advanced Audio Codec
Format profile                           : LC
Codec ID                                 : 40
Duration                                 : 2h 28mn
Bit rate mode                            : Constant
Bit rate                                 : 128 Kbps
Channel(s)                               : 2 channels
Channel positions                        : Front: L R
Sampling rate                            : 44.1 KHz
Compression mode                         : Lossy
Stream size                              : 136 MiB (11%)
lFOnER3.png
aIJBpoj.jpg
TSdTsXy.jpg
b6WeH2N.png


Q0G88mc.png
Ekli dosyalar kısmından indirebilirsiniz.
[hide]
mesutcan8534 Üyemizin isteği üzerine konu açılmıştır, sinema çekimidir en kısa zamanda daha iyi bir kaliye ile sizlere yeni sunumu vereceğiz.


[/hide]
Ek Dosyalar
.torrent   [TD] Dabbe 6 (2015) - CamRip AAC HDTurk - Yerli Film - Torrent İndir - Torrent Film İndir.torrent (Dosya Boyutu: 25.26 KB / İndirme Sayısı: 326)
Son Düzenleme: 19-03-2016, Saat: 21:49, Düzenleyen: TD Suspect Man
Cevapla
denizhan77
#2
Darısı siccin 2 ye inşallah
Ara
Cevapla
kocaadam1534
#3
dir, Dabbe 6 (2015) - CamRip AAC HDTurk - Yerli Film - Torrent İndir - Torrent Film İndir hızlı torrent indir, Dabbe 6 (2015) - CamRip AAC HDTurk - Yerli Film - Torrent İndir - Torrent Film İndir download
Ara
Cevapla
TD Serkancan1903
#4
Teşekkürler.
Ara
Cevapla
Nicat_062
#5
Tesekkurler)))
Ara
Cevapla
Enooo55
#6
teşekkürler
Ara
Cevapla
yuxel05
#7
adamsınız
Ara
Cevapla
adsasd
#8
saasdasd
Ara
Cevapla
cancrazy
#9
teşekkürler
Ara
Cevapla
faruk66
#10
teşekkürler
Ara
Cevapla
 


Anahtar Kelimeler

Dabbe 6 (2015) - CamRip AAC HDTurk - Yerli Film - Torrent İndir - Torrent Film İndir, Dabbe 6 (2015) - CamRip AAC HDTurk - Yerli Film - Torrent İndir - Torrent Film İndir indir, Dabbe 6 (2015) - CamRip AAC HDTurk - Yerli Film - Torrent İndir - Torrent Film İndir Videosu, Dabbe 6 (2015) - CamRip AAC HDTurk - Yerli Film - Torrent İndir - Torrent Film İndir online izle, Dabbe 6 (2015) - CamRip AAC HDTurk - Yerli Film - Torrent İndir - Torrent Film İndir Bedava indir, Dabbe 6 (2015) - CamRip AAC HDTurk - Yerli Film - Torrent İndir - Torrent Film İndir Yükle, Dabbe 6 (2015) - CamRip AAC HDTurk - Yerli Film - Torrent İndir - Torrent Film İndir Hakkında, Dabbe 6 (2015) - CamRip AAC HDTurk - Yerli Film - Torrent İndir - Torrent Film İndir nedir, Dabbe 6 (2015) - CamRip AAC HDTurk - Yerli Film - Torrent İndir - Torrent Film İndir Free indir, Dabbe 6 (2015) - CamRip AAC HDTurk - Yerli Film - Torrent İndir - Torrent Film İndir oyunu, Dabbe 6 (2015) - CamRip AAC HDTurk - Yerli Film - Torrent İndir - Torrent Film İndir download



Konu ile Alakalı Benzer Konular
Konular Yazar Yorumlar Okunma Son Yorum
720p DAĞ II | 2016 | YERLİ FİLM | 720p | HD TV | TORRENT İNDİR TD MĀçĀ ₭ıƵı 14 1,338 20 dakika önce
Son Yorum: Çağlar Güngör
720p Dağ 2 (2016) - 720p WEB-DL - Yerli Film - Torrent İndir TD MĀçĀ ₭ıƵı 370 53,446 28 dakika önce
Son Yorum: TD MĀçĀ ₭ıƵı
720p Olaylar Olaylar (2016) - 720p WEBRip HDTurk - Yerli Film - Torrent İndir TD Suspect Man 37 5,839 34 dakika önce
Son Yorum: nejdet.gr
720p İkimizin Yerine 2016 | Yerli Film | 720P | Torrent İndir TD MĀçĀ ₭ıƵı 23 1,178 2 saat önce
Son Yorum: reacherjack
  8 Saniye (2015) - 8 Seconds - HDRip - Yerli Film - Torrent İndir TD Dante1905™ 1,188 79,945 4 saat önce
Son Yorum: fenerliholmes

Hızlı Menü:


Konuyu Okuyanlar: 1 Ziyaretçi