Torrent Dükkanı, Torrent Oyun, Torrent Film, Torrent Dizi, Full İndir
Torrent Dükkanı Bilgilendirme

Torrent Dükkanı Vip Üyelik

Torrent Dükkanı Moderatör Başvurusu

Forum kuralları!

Merhaba! Forumlarımızda herhangi bir aktivitede bulunmadan önce, forum düzeni ve kalıcılığı için lütfen forum kurallarını okuyunuz.

Forum Kuralları
Bilgi? Yeni temamız aktif edilmiştir, iyi forumlar dileriz.
Sağolun! Gün geçtikçe büyüyor ve gelişiyoruz destek verenlere teşekkür ederiz.
Dikkat! Kurallara uymayan üyeler uyarılmaksızın siteden men edilecektir.
Süper:) Yeni kampanyalarımızla sizlere yenilikler katmaya devam ediyoruz.
 
Konuyu Oyla:
  • Derecelendirme: 1/5 - 1 oy
  • 1
  • 2
  • 3
  • 4
  • 5
Dalga - The Wave (2015) - BRRip XviD HDTurk - Türkçe Dublaj - Torrent İndir
(Okunma: 2227)
TD Suspect Man
#1
BRRip 
IskW8lw.jpg

j5MDH3b.png
Yapımı : 2015 - Norveç
Tür : Aksiyon ,  Dram ,  Gerilim
Yönetmen : Roar Uthaug
Oyuncular : Kristoffer Joner ,  Ane Dahl Torp ,  Thomas Bo Larsen ,  Fridtjov Såheim ,  Herman Bernhoft
Senaryo : John Kåre Raake ,  Harald Rosenløw-Eeg
Yapımcı : Martin Sundland ,  Are Heidenstrom
Diğer Adı : The Wave

Norveç'in dağlarının eteklerine kurulu turistik kasabası Geiranger sakinleri sıradan bir güne daha uyanır. Jeolog Kristian (Kristoffer Joner) ve ailesi kasabadan taşınmak üzeredir. Kristian işindeki son gününde dağlardan gelen tehlikenin farkına varır. Geiranger kasabasını bekleyen tehlikeye iş arkadaşlarını ikna edemeyen Kristian ve kasaba sakinleri hayatlarının en zor gecesini yaşayacaktır.
Kod:
Format                                   : AVI
Format/Info                              : Audio Video Interleave
File size                                : 1.24 GiB
Duration                                 : 1h 44mn
Overall bit rate                         : 1 698 Kbps
Writing application                      : VirtualDubMod 1.5.10.2 (build 2540/release)
Writing library                          : VirtualDubMod build 2540/release

Video
ID                                       : 0
Format                                   : MPEG-4 Visual
Format profile                           : Advanced Simple@L5
Format settings, BVOP                    : 2
Format settings, QPel                    : No
Format settings, GMC                     : No warppoints
Format settings, Matrix                  : Default (H.263)
Muxing mode                              : Packed bitstream
Codec ID                                 : XVID
Codec ID/Hint                            : XviD
Duration                                 : 1h 44mn
Bit rate                                 : 1 561 Kbps
Width                                    : 720 pixels
Height                                   : 304 pixels
Display aspect ratio                     : 2.35:1
Frame rate                               : 24.000 fps
Color space                              : YUV
Chroma subsampling                       : 4:2:0
Bit depth                                : 8 bits
Scan type                                : Progressive
Compression mode                         : Lossy
Bits/(Pixel*Frame)                       : 0.297
Stream size                              : 1.14 GiB (92%)
Writing library                          : XviD 64

Audio
ID                                       : 1
Format                                   : MPEG Audio
Format version                           : Version 1
Format profile                           : Layer 3
Mode                                     : Joint stereo
Mode extension                           : MS Stereo
Codec ID                                 : 55
Codec ID/Hint                            : MP3
Duration                                 : 1h 44mn
Bit rate mode                            : Constant
Bit rate                                 : 128 Kbps
Channel(s)                               : 2 channels
Sampling rate                            : 48.0 KHz
Compression mode                         : Lossy
Stream size                              : 96.0 MiB (8%)
Alignment                                : Aligned on interleaves
Interleave, duration                     : 42 ms (1.00 video frame)
Interleave, preload duration             : 504 ms  
lFOnER3.png
8ZajYW.jpg
D2Yj7m.jpg
m6M02Z.jpg
b6WeH2N.png


Q0G88mc.png
"Ekli Dosyalar" kısmından indirebilirsiniz.

Hide Post

Önemli Not: Lütfen indirdiğiniz torrentleri yükleme işlemi bittikten sonra seed (gönderme) ediniz.
Yorum yapmayı unutmayınız. Emeğe karşı istediklerimizi yapmak zor değil.
Ek Dosyalar
.torrent   [TD] Dalga - The Wave (2015) - BRRip XviD HDTurk - Türkçe Dublaj - Torrent İndir.torrent (Dosya Boyutu: 99.94 KB / İndirme Sayısı: 335)
Son Düzenleme: 07-04-2016, Saat: 00:29, Düzenleyen: TD Suspect Man
Cevapla
mesut501
#2
teşekkürler
Ara
Cevapla
angelangel
#3
teşekkürlerr
Ara
Cevapla
lato
#4
teşekürler
Ara
Cevapla
polened
#5
Teşekürler
Ara
Cevapla
ahmet0351
#6
teşekkürler
Ara
Cevapla
knkn4565
#7
teşekkürler
Ara
Cevapla
memoli35
#8
teşekkürler
Ara
Cevapla
mtn45
#9
çok sağol
Ara
Cevapla
emirduz
#10
emeğinize sağlık...
Ara
Cevapla
 


Anahtar Kelimeler

Dalga - The Wave (2015) - BRRip XviD HDTurk - Türkçe Dublaj - Torrent İndir, Dalga - The Wave (2015) - BRRip XviD HDTurk - Türkçe Dublaj - Torrent İndir indir, Dalga - The Wave (2015) - BRRip XviD HDTurk - Türkçe Dublaj - Torrent İndir Videosu, Dalga - The Wave (2015) - BRRip XviD HDTurk - Türkçe Dublaj - Torrent İndir online izle, Dalga - The Wave (2015) - BRRip XviD HDTurk - Türkçe Dublaj - Torrent İndir Bedava indir, Dalga - The Wave (2015) - BRRip XviD HDTurk - Türkçe Dublaj - Torrent İndir Yükle, Dalga - The Wave (2015) - BRRip XviD HDTurk - Türkçe Dublaj - Torrent İndir Hakkında, Dalga - The Wave (2015) - BRRip XviD HDTurk - Türkçe Dublaj - Torrent İndir nedir, Dalga - The Wave (2015) - BRRip XviD HDTurk - Türkçe Dublaj - Torrent İndir Free indir, Dalga - The Wave (2015) - BRRip XviD HDTurk - Türkçe Dublaj - Torrent İndir oyunu, Dalga - The Wave (2015) - BRRip XviD HDTurk - Türkçe Dublaj - Torrent İndir download



Konu ile Alakalı Benzer Konular
Konular Yazar Yorumlar Okunma Son Yorum
Hdtv Cehennem - Inferno (2016) - HDTV AC3 DUAL x264 NOVA - Türkçe Dublaj - Torrent İndir TD Suspect Man 13 505 1 saat önce
Son Yorum: berk444
BRRip En Super Kahramanlar - Bling (2016) BRRip x264 NOVA - Türkçe Dublaj - Torrent İndir TD Suspect Man 6 300 4 saat önce
Son Yorum: iffoadams
1080p Batman v Superman: Adaletin Şafağı (2016) 1080p WebDL - Türkçe Dublaj - Torrent İndir stei 8 167 4 saat önce
Son Yorum: iffoadams
  Toz Ol Skiptrace 2016 TR BDRip AC3 x264 Türkçe Dublaj Torrent İndir TD MĀçĀ ₭ıƵı 12 6,331 4 saat önce
Son Yorum: iffoadams
  Son Cadı Avcısı (2015) - The Last Witch Hunter - Türkçe Dublaj - Torrent İndir TD Dante1905™ 1,611 84,795 6 saat önce
Son Yorum: cizdar

Hızlı Menü:


Konuyu Okuyanlar: 1 Ziyaretçi