Torrent Dükkanı, Torrent Oyun, Torrent Film, Torrent Dizi, Full İndir
Torrent Dükkanı Bilgilendirme

Torrent Dükkanı Vip Üyelik

Torrent Dükkanı Moderatör Başvurusu

Forum kuralları!

Merhaba! Forumlarımızda herhangi bir aktivitede bulunmadan önce, forum düzeni ve kalıcılığı için lütfen forum kurallarını okuyunuz.

Forum Kuralları
Bilgi? Yeni temamız aktif edilmiştir, iyi forumlar dileriz.
Sağolun! Gün geçtikçe büyüyor ve gelişiyoruz destek verenlere teşekkür ederiz.
Dikkat! Kurallara uymayan üyeler uyarılmaksızın siteden men edilecektir.
Süper:) Yeni kampanyalarımızla sizlere yenilikler katmaya devam ediyoruz.
 
Konuyu Oyla:
  • Derecelendirme: 0/5 - 0 oy
  • 1
  • 2
  • 3
  • 4
  • 5
Evdeki Hayalet (2016) - 720p WEBRip XviD - Türkçe Dublaj - Torrent İndir
(Okunma: 480)
TD Suspect Man
#1
720p 
woVUyqW.jpg

I Am the Pretty Thing That Lives in the House 2016 torrent indir, I Am the Pretty Thing That Lives in the House 2016 torrent film indir
j5MDH3b.png
Hayalet hikayesinin içinde hayaletli bir hikaye... Bu duvarlar dile gelse anlatacakları güzel ve korkunç masallar var. Çok çabuk korkan, pimpirikli bir hemşire, gizli sırlarla dolu bir evde yaşayan bir korku romanı yazarının hasta bakıcılığını üstlenir.
Kod:
General
Unique ID : 206426186661477023119986670782602216588 (0x9B4C3CC7899A31E1B58433E1B81F048C)
Complete name : C:\Users\aliriza\Desktop\Downloads\Evdeki Hayalet I Am the Pretty Thing That Lives in the House 2016 TR 720p WEBRip XviD AC3.mkv
Format : Matroska
Format version : Version 4 / Version 2
File size : 2.04 GiB
Duration : 1 h 29 min
Overall bit rate : 3 273 kb/s
Encoded date : UTC 2016-10-31 14:30:34
Writing application : mkvmerge v9.2.0 ('Photograph') 64bit
Writing library : libebml v1.3.3 + libmatroska v1.4.4
Video
ID : 1
Format : MPEG-4 Visual
Format profile : Simple@L5
Format settings, BVOP : No
Format settings, QPel : No
Format settings, GMC : No warppoints
Format settings, Matrix : Default (H.263)
Codec ID : V_MS/VFW/FOURCC / XVID
Codec ID/Hint : XviD
Duration : 1 h 29 min
Bit rate : 3 079 kb/s
Width : 1 280 pixels
Height : 690 pixels
Display aspect ratio : 1.85:1
Frame rate mode : Constant
Frame rate : 23.976 FPS
Color space : YUV
Chroma subsampling : 4:2:0
Bit depth : 8 bits
Scan type : Progressive
Compression mode : Lossy
Bits/(Pixel*Frame) : 0.145
Stream size : 1.92 GiB (94%)
Writing library : Lavc57.24.102
Default : Yes
Forced : No
Audio
ID : 2
Format : E-AC-3
Format/Info : Audio Coding 3
Format settings, Endianness : Big
Codec ID : A_EAC3
Duration : 1 h 29 min
Bit rate mode : Constant
Bit rate : 192 kb/s
Channel(s) : 6 channels
Channel positions : Front: L C R, Side: L R, LFE
Sampling rate : 48.0 kHz
Frame rate : 187.500 FPS (256 spf)
Compression mode : Lossy
Stream size : 122 MiB (6%)
Default : Yes
Forced : No
lFOnER3.png
ouaPFyE.jpg
Z9F5uGe.jpg
Gvdmtjj.jpg
GNNiQLx.jpg
b6WeH2N.png


Q0G88mc.png
"Ekli Dosyalar" kısmından indirebilirsiniz.

Hide Post

Önemli Not: Lütfen indirdiğiniz torrentleri yükleme işlemi bittikten sonra seed (gönderme) ediniz.
Yorum yapmayı unutmayınız. Emeğe karşı istediklerimizi yapmak zor değil.
Ek Dosyalar
.torrent   [TD] Evdeki Hayalet (2016) - 720p WEBRip XviD - Türkçe Dublaj - Torrent İndir.torrent (Dosya Boyutu: 10.65 KB / İndirme Sayısı: 112)
Son Düzenleme: 01-11-2016, Saat: 21:14, Düzenleyen: TD Suspect Man
Cevapla
herqul
#2
Merak ettim bakalım nasıl birşey çıkacak? Teşekkürler..
Ara
Cevapla
mitxolto27
#3
saol hacı
Ara
Cevapla
hakkiim
#4
tşkler.
Ara
Cevapla
bulocan
#5
teşekkürler harika
Ara
Cevapla
HazarBatu34
#6
teşekkürler
Ara
Cevapla
emin_ozer
#7
teşekkürler
Ara
Cevapla
 


Anahtar Kelimeler

Evdeki Hayalet (2016) - 720p WEBRip XviD - Türkçe Dublaj - Torrent İndir, Evdeki Hayalet (2016) - 720p WEBRip XviD - Türkçe Dublaj - Torrent İndir indir, Evdeki Hayalet (2016) - 720p WEBRip XviD - Türkçe Dublaj - Torrent İndir Videosu, Evdeki Hayalet (2016) - 720p WEBRip XviD - Türkçe Dublaj - Torrent İndir online izle, Evdeki Hayalet (2016) - 720p WEBRip XviD - Türkçe Dublaj - Torrent İndir Bedava indir, Evdeki Hayalet (2016) - 720p WEBRip XviD - Türkçe Dublaj - Torrent İndir Yükle, Evdeki Hayalet (2016) - 720p WEBRip XviD - Türkçe Dublaj - Torrent İndir Hakkında, Evdeki Hayalet (2016) - 720p WEBRip XviD - Türkçe Dublaj - Torrent İndir nedir, Evdeki Hayalet (2016) - 720p WEBRip XviD - Türkçe Dublaj - Torrent İndir Free indir, Evdeki Hayalet (2016) - 720p WEBRip XviD - Türkçe Dublaj - Torrent İndir oyunu, Evdeki Hayalet (2016) - 720p WEBRip XviD - Türkçe Dublaj - Torrent İndir download



Konu ile Alakalı Benzer Konular
Konular Yazar Yorumlar Okunma Son Yorum
Bdrip Korku Seansı 2 - The Conjuring 2 (2016) - BDRip - Türkçe Dublaj -Torrent İndir TD Suspect Man 30 1,519 26 dakika önce
Son Yorum: karakaya335
BRRip Korku Seansı - The Conjuring (2013) - BRRip - Türkçe Dublaj - Torrent İndir TD Suspect Man 13 5,968 2 saat önce
Son Yorum: berk444
720p Kışın Ortasında - Edge of Winter (2016) - 720p WEBRip - Turkçe Dublaj - Torrent İndir TD Suspect Man 2 623 5 saat önce
Son Yorum: emin_ozer
  Mezarına Tüküreceğim 2 (2013) - BDRip - Türkçe Dublaj - Torrent İndir TD Suspect Man 9 5,837 5 saat önce
Son Yorum: emin_ozer
HDRip Palyaço - Clown (2014) - HDRip XviD - Türkçe Dublaj - Torrent İndir TD Suspect Man 2 2,371 5 saat önce
Son Yorum: emin_ozer

Hızlı Menü:


Konuyu Okuyanlar: 1 Ziyaretçi