Torrent Dükkanı, Torrent Oyun, Torrent Film, Torrent Dizi, Full İndir
mod başvuru

İndirme Limiti Kalkmıştır

Forum kuralları!

Merhaba! Forumlarımızda herhangi bir aktivitede bulunmadan önce, forum düzeni ve kalıcılığı için lütfen forum kurallarını okuyunuz.

Forum Kuralları
Bilgi? Sitede Önemli Değişiklik Ve Farklılıklar. Herkesin Okumasında Fayda Var! ["TIKLAYINIZ."]
#BaşvuruYap Yetkili Alımları Başlamıştır! Sitede Görevli Olmak İsteyen Arkadaşlar Konuyu İnceleyebilir, Detaylar İçin: ["TIKLAYINIZ."]
Süper:) VİP Üyelik Ayrıcalıklarından Yararlanmak İçin Buraya! Ömür Boyu VİP Üye Olabilirsiniz Detaylar Konumuzda: ["TIKLAYINIZ."]
Dikkat! Emeklere Karşılık Olarak Konulara Yorumlarını Eksik Etmeyiniz. Kurallara Uymayanlar Siteden Men Edilecektir! Torrentleri Seed Ediniz.!

 
Konuyu Oyla:
  • Derecelendirme: 2.5/5 - 2 oy
  • 1
  • 2
  • 3
  • 4
  • 5
Jem ve Hologramlar (2015) - BRRip XviD HDTurk - Türkçe Dublaj - Torrent İndir
(Okunma: 1028)
TD Suspect Man
#1
BRRip 
eYNk1BG.jpg

j5MDH3b.png
Yapımı : 2015 - ABD
Tür : Fantastik ,  Macera ,  Müzikal
Yönetmen : Jon M Chu
Oyuncular : Juliette Lewis ,  Hayley Kiyoko ,  Ryan Guzman ,  Stefanie Scott ,  Molly Ringwald
Senaryo : Ryan Landels
Yapımcı : Scooter Braun ,  Jason Blum

Onun müzik esinlenerek gizli bir kimlik alıncaya kadar bir küçük kasaba kızı olarak Jerrica bir sakatlıklar hayat yaşıyor. Gecede küresel süperstar bir yeraltı bir video hissinden mancınık cesur, çarpıcı ve kesinlikle korkusuz şarkıcı: O Jem olur. O gerçekten çok önemli şeyler görüşememek olabilir gibi görünüyor ama ne zaman, Jerrica ve üç kız onun bant bazı yetenekleri gizli tutmak için. Çok özel olduğunu keşfetmek, bir tek-in-a-milyon yolculuk başlar tarafından yazıldı.
Kod:
Format                         : AVI
Format/Info                    : Audio Video Interleave
Format profile                 : OpenDML
File size                      : 1.10 GiB
Duration                       : 1h 58mn
Overall bit rate               : 1 323 Kbps
Writing application            : Lavf55.12.100

Video
ID                             : 1
Format                         : MPEG-4 Visual
Format settings, BVOP          : No
Format settings, QPel          : No
Format settings, GMC           : No warppoints
Format settings, Matrix        : Default (H.263)
Codec ID                       : FMP4
Duration                       : 1h 58mn
Bit rate                       : 1 115 Kbps
Width                          : 720 pixels
Height                         : 302 pixels
Display aspect ratio           : 2.40:1
Frame rate                     : 23.976 fps
Color space                    : YUV
Chroma subsampling             : 4:2:0
Bit depth                      : 8 bits
Scan type                      : Progressive
Compression mode               : Lossy
Bits/(Pixel*Frame)             : 0.214
Stream size                    : 945 MiB (84%)
Writing library                : Lavc55.18.102

Audio
ID                             : 0
Format                         : MPEG Audio
Format version                 : Version 1
Format profile                 : Layer 3
Mode                           : Joint stereo
Codec ID                       : 55
Codec ID/Hint                  : MP3
Duration                       : 1h 58mn
Bit rate mode                  : Constant
Bit rate                       : 192 Kbps
Channel(s)                     : 2 channels
Sampling rate                  : 44.1 KHz
Compression mode               : Lossy
Stream size                    : 163 MiB (15%)
Alignment                      : Aligned on interleaves
Interleave, duration           : 42 ms (1.00 video frame)
Writing library                : LAME3.99.5
lFOnER3.png
A7vgnr.jpg
b6WeH2N.png


Q0G88mc.png
"Ekli Dosyalar" kısmından indirebilirsiniz.

[hide]Filmi indirmek için TIKLAYINIZ.
En son filmleri ilk önce indirmek için "VİP" üye olunuz![/hide]

Önemli Not: Lütfen indirdiğiniz torrentleri yükleme işlemi bittikten sonra seed (gönderme) ediniz.
Yorum yapmayı unutmayınız. Emeğe karşı istediklerimizi yapmak zor değil.
Ek Dosyalar
.torrent   [TD] Jem ve Hologramlar (2015) - BRRip XviD HDTurk - Türkçe Dublaj - Torrent İndir.torrent (Dosya Boyutu: 88.04 KB / İndirme Sayısı: 77)
Son Düzenleme: 10-04-2016, Saat: 14:37, Düzenleyen: TD Suspect Man
Cevapla
onergundogdu
#2
tesekkurler
Ara
Cevapla
 


Anahtar Kelimeler

Jem ve Hologramlar (2015) - BRRip XviD HDTurk - Türkçe Dublaj - Torrent İndir, Jem ve Hologramlar (2015) - BRRip XviD HDTurk - Türkçe Dublaj - Torrent İndir indir, Jem ve Hologramlar (2015) - BRRip XviD HDTurk - Türkçe Dublaj - Torrent İndir Videosu, Jem ve Hologramlar (2015) - BRRip XviD HDTurk - Türkçe Dublaj - Torrent İndir online izle, Jem ve Hologramlar (2015) - BRRip XviD HDTurk - Türkçe Dublaj - Torrent İndir Bedava indir, Jem ve Hologramlar (2015) - BRRip XviD HDTurk - Türkçe Dublaj - Torrent İndir Yükle, Jem ve Hologramlar (2015) - BRRip XviD HDTurk - Türkçe Dublaj - Torrent İndir Hakkında, Jem ve Hologramlar (2015) - BRRip XviD HDTurk - Türkçe Dublaj - Torrent İndir nedir, Jem ve Hologramlar (2015) - BRRip XviD HDTurk - Türkçe Dublaj - Torrent İndir Free indir, Jem ve Hologramlar (2015) - BRRip XviD HDTurk - Türkçe Dublaj - Torrent İndir oyunu, Jem ve Hologramlar (2015) - BRRip XviD HDTurk - Türkçe Dublaj - Torrent İndir download



Konu ile Alakalı Benzer Konular
Konular Yazar Yorumlar Okunma Son Yorum
  Karanlıklar Ülkesİ 5 : Kan Savaşları 2016 - BRRİP - TÜRKÇE DUBLAJ - TORRENT İNDİR tahir78 13 575 5 saat önce
Son Yorum: Çağlar Güngör
Bdrip Simülasyon - The Call Up - 2016 - BDRip - Türkçe Dublaj - Torrent İndir TD TavukSuyunaÇorba 7 349 6 saat önce
Son Yorum: Çağlar Güngör
Bdrip Geliş - Arrival - 2016 - Türkçe Dublaj - BDRip - AC3 x264 - Torrent İndir TD TavukSuyunaÇorba 12 822 25-03-2017, Saat: 22:36
Son Yorum: Gatorr
Bluray Simülasyon - The Call Up - 2016 - 1080p - BluRay - Türkçe Dublaj - Torrent İndir TD TavukSuyunaÇorba 2 277 23-03-2017, Saat: 18:23
Son Yorum: madmayk
BRRip Jupiter Yükseliyor - Jupiter Ascending (2015) - BRRip - Türkçe Dublaj - Torrent İndir TD Suspect Man 30 10,524 23-03-2017, Saat: 17:08
Son Yorum: erayts

Hızlı Menü:


Konuyu Okuyanlar: 1 Ziyaretçi