Torrent Dükkanı, Torrent Oyun, Torrent Film, Torrent Dizi, Full İndir


Forum kuralları!

Merhaba! Forumlarımızda herhangi bir aktivitede bulunmadan önce, forum düzeni ve kalıcılığı için lütfen forum kurallarını okuyunuz.

Forum Kuralları
Bilgi? Sitede Önemli Değişiklik Ve Farklılıklar. Herkesin Okumasında Fayda Var! ["TIKLAYINIZ."]
#BaşvuruYap Yetkili Alımları Başlamıştır! Sitede Görevli Olmak İsteyen Arkadaşlar Konuyu İnceleyebilir, Detaylar İçin: ["TIKLAYINIZ."]
Süper:) VİP Üyelik Ayrıcalıklarından Yararlanmak İçin Buraya! Ömür Boyu VİP Üye Olabilirsiniz Detaylar Konumuzda: ["TIKLAYINIZ."]
Dikkat! Emeklere Karşılık Olarak Konulara Yorumlarını Eksik Etmeyiniz. Kurallara Uymayanlar Siteden Men Edilecektir! Torrentleri Seed Ediniz.!

 
Konuyu Oyla:
  • Derecelendirme: 0/5 - 0 oy
  • 1
  • 2
  • 3
  • 4
  • 5
Koalisyon - Coalition (2015) HDRip XviD HDTurk - Türkçe Dublaj - Torrent İndir
(Okunma: 749)
TD Suspect Man
#1
HDRip 
ICG8LEP.jpg

j5MDH3b.png
İngiltere parlamentosunda gelişen olayları konu alan film 2010 yılında geçiyor. Üç farklı partinin, üç farklı görüşe sahip liderinin koalisyon kurmaya çalışırken yaşadıkları inişler, çıkışlar, görüş ayrılıkları ve fikir birliklerini izliyoruz.
Kod:
General
Complete name                            : C:\Users\eigenaar\Downloads\Koalisyon – Coalition 2015 TR HDRip XviD -VKRG.avi
Format                                   : AVI
Format/Info                              : Audio Video Interleave
Format profile                           : OpenDML
File size                                : 1.34 GiB
Duration                                 : 1h 1mn
Overall bit rate                         : 3 121 Kbps
Writing application                      : Lavf57.31.100

Video #1
ID                                       : 0
Format                                   : AVC
Format/Info                              : Advanced Video Codec
Format profile                           : Main@L4.1
Format settings, CABAC                   : Yes
Format settings, ReFrames                : 2 frames
Codec ID                                 : H264
Duration                                 : 1h 1mn
Bit rate                                 : 1 500 Kbps
Width                                    : 720 pixels
Height                                   : 406 pixels
Display aspect ratio                     : 16:9
Original display aspect ratio            : 16:9
Frame rate mode                          : Variable
Frame rate                               : 25.000 fps
Color space                              : YUV
Chroma subsampling                       : 4:2:0
Bit depth                                : 8 bits
Scan type                                : Progressive / Progressive
Original scan type                       : Progressive
Bits/(Pixel*Frame)                       : 0.205
Stream size                              : 655 MiB (48%)
Writing library                          : x264 core 148 r2665
Encoding settings                        : cabac=1 / ref=1 / deblock=1:0:0 / analyse=0x1:0x131 / me=hex / subme=5 / psy=1 / psy_rd=1.00:0.00 / mixed_ref=0 / me_range=16 / chroma_me=1 / trellis=0 / 8x8dct=0 / cqm=0 / deadzone=21,11 / fast_pskip=1 / chroma_qp_offset=0 / threads=12 / lookahead_threads=3 / sliced_threads=0 / nr=0 / decimate=1 / interlaced=0 / bluray_compat=0 / constrained_intra=0 / bframes=3 / b_pyramid=0 / b_adapt=1 / b_bias=0 / direct=0 / weightb=1 / open_gop=0 / weightp=2 / keyint=250 / keyint_min=25 / scenecut=40 / intra_refresh=0 / rc_lookahead=40 / rc=abr / mbtree=1 / bitrate=1500 / ratetol=1.0 / qcomp=0.60 / qpmin=10 / qpmax=51 / qpstep=4 / vbv_maxrate=24000 / vbv_bufsize=24000 / nal_hrd=none / filler=0 / ip_ratio=1.40 / aq=1:1.00

Video #2
ID                                       : 2
Format                                   : AVC
Format/Info                              : Advanced Video Codec
Format profile                           : Main@L4.1
Format settings, CABAC                   : Yes
Format settings, ReFrames                : 2 frames
Codec ID                                 : H264
Duration                                 : 1h 1mn
Bit rate                                 : 1 500 Kbps
Width                                    : 720 pixels
Height                                   : 406 pixels
Display aspect ratio                     : 16:9
Frame rate mode                          : Variable
Frame rate                               : 25.000 fps
Color space                              : YUV
Chroma subsampling                       : 4:2:0
Bit depth                                : 8 bits
Scan type                                : Progressive
Bits/(Pixel*Frame)                       : 0.205
Stream size                              : 655 MiB (48%)
Writing library                          : x264 core 148 r2665
Encoding settings                        : cabac=1 / ref=1 / deblock=1:0:0 / analyse=0x1:0x131 / me=hex / subme=5 / psy=1 / psy_rd=1.00:0.00 / mixed_ref=0 / me_range=16 / chroma_me=1 / trellis=0 / 8x8dct=0 / cqm=0 / deadzone=21,11 / fast_pskip=1 / chroma_qp_offset=0 / threads=12 / lookahead_threads=3 / sliced_threads=0 / nr=0 / decimate=1 / interlaced=0 / bluray_compat=0 / constrained_intra=0 / bframes=3 / b_pyramid=0 / b_adapt=1 / b_bias=0 / direct=0 / weightb=1 / open_gop=0 / weightp=2 / keyint=250 / keyint_min=25 / scenecut=40 / intra_refresh=0 / rc_lookahead=40 / rc=abr / mbtree=1 / bitrate=1500 / ratetol=1.0 / qcomp=0.60 / qpmin=10 / qpmax=51 / qpstep=4 / vbv_maxrate=24000 / vbv_bufsize=24000 / nal_hrd=none / filler=0 / ip_ratio=1.40 / aq=1:1.00

Audio
ID                                       : 1
Format                                   : MPEG Audio
Format version                           : Version 1
Format profile                           : Layer 3
Codec ID                                 : 55
Codec ID/Hint                            : MP3
Duration                                 : 1h 1mn
Bit rate mode                            : Constant
Bit rate                                 : 128 Kbps
Channel(s)                               : 2 channels
Sampling rate                            : 48.0 KHz
Compression mode                         : Lossy
Stream size                              : 56.4 MiB (4%)
Alignment                                : Aligned on interleaves
Interleave, duration                     : 24 ms (0.60 video frame)
lFOnER3.png
JAG4PJ.jpg
b6WeH2N.png


Q0G88mc.png
"Ekli Dosyalar" kısmından indirebilirsiniz.

Hide Post

Önemli Not: Lütfen indirdiğiniz torrentleri yükleme işlemi bittikten sonra seed (gönderme) ediniz.
Yorum yapmayı unutmayınız. Emeğe karşı istediklerimizi yapmak zor değil.
Ek Dosyalar
.torrent   [TD] Koalisyon - Coalition (2015) HDRip XviD HDTurk - Türkçe Dublaj - Torrent İndir.torrent (Dosya Boyutu: 13.86 KB / İndirme Sayısı: 48)
Son Düzenleme: 20-04-2016, Saat: 22:28, Düzenleyen: TD Suspect Man
Cevapla
bluemavi79
#2
Teşekkürler.
Ara
Cevapla
nightwish26
#3
tskkürler
Ara
Cevapla
 


Anahtar Kelimeler

Koalisyon - Coalition (2015) HDRip XviD HDTurk - Türkçe Dublaj - Torrent İndir, Koalisyon - Coalition (2015) HDRip XviD HDTurk - Türkçe Dublaj - Torrent İndir indir, Koalisyon - Coalition (2015) HDRip XviD HDTurk - Türkçe Dublaj - Torrent İndir Videosu, Koalisyon - Coalition (2015) HDRip XviD HDTurk - Türkçe Dublaj - Torrent İndir online izle, Koalisyon - Coalition (2015) HDRip XviD HDTurk - Türkçe Dublaj - Torrent İndir Bedava indir, Koalisyon - Coalition (2015) HDRip XviD HDTurk - Türkçe Dublaj - Torrent İndir Yükle, Koalisyon - Coalition (2015) HDRip XviD HDTurk - Türkçe Dublaj - Torrent İndir Hakkında, Koalisyon - Coalition (2015) HDRip XviD HDTurk - Türkçe Dublaj - Torrent İndir nedir, Koalisyon - Coalition (2015) HDRip XviD HDTurk - Türkçe Dublaj - Torrent İndir Free indir, Koalisyon - Coalition (2015) HDRip XviD HDTurk - Türkçe Dublaj - Torrent İndir oyunu, Koalisyon - Coalition (2015) HDRip XviD HDTurk - Türkçe Dublaj - Torrent İndir download



Konu ile Alakalı Benzer Konular
Konular Yazar Yorumlar Okunma Son Yorum
  Hacker (2015) - Blackhat - BDRip - Türkçe Dublaj - Torrent İndir TD Dante1905™ 449 24,569 18-01-2017, Saat: 19:42
Son Yorum: hanbay
  İnaçılar - Hrutar 2015 Türkçe Dublaj BRRİP Torrent Dükkanı TD ZeusunOğlu 6 1,165 18-01-2017, Saat: 08:36
Son Yorum: hp-rıza
torrent Bridgend Kasabanın Esrarı 2015 TR || Torrent irfankarakul 7 377 16-01-2017, Saat: 08:52
Son Yorum: hp-rıza
BRRip Icerideki Adam - Inside Man (2006) - BRRip - Türkçe Dublaj - Torrent İndir BrutalAnqel 2 1,909 15-01-2017, Saat: 19:21
Son Yorum: pinarcaya
torrent Avis De Mistral 2014 TR BRRip XviD || Torrent irfankarakul 8 242 15-01-2017, Saat: 12:40
Son Yorum: Dino

Hızlı Menü:


Konuyu Okuyanlar: 1 Ziyaretçi