Torrent Dükkanı, Torrent Oyun, Torrent Film, Torrent Dizi, Full İndir
mod başvuru

çiftiklik zamanı

İndirme Limiti Kalkmıştır

Forum kuralları!

Merhaba! Forumlarımızda herhangi bir aktivitede bulunmadan önce, forum düzeni ve kalıcılığı için lütfen forum kurallarını okuyunuz.

Forum Kuralları
Bilgi? Sitede Önemli Değişiklik Ve Farklılıklar. Herkesin Okumasında Fayda Var! ["TIKLAYINIZ."]
#BaşvuruYap Yetkili Alımları Başlamıştır! Sitede Görevli Olmak İsteyen Arkadaşlar Konuyu İnceleyebilir, Detaylar İçin: ["TIKLAYINIZ."]
Süper:) VİP Üyelik Ayrıcalıklarından Yararlanmak İçin Buraya! Ömür Boyu VİP Üye Olabilirsiniz Detaylar Konumuzda: ["TIKLAYINIZ."]
Dikkat! Emeklere Karşılık Olarak Konulara Yorumlarını Eksik Etmeyiniz. Kurallara Uymayanlar Siteden Men Edilecektir! Torrentleri Seed Ediniz.!

 
Konuyu Oyla:
  • Derecelendirme: 0/5 - 0 oy
  • 1
  • 2
  • 3
  • 4
  • 5
Terkedilmiş - The Abandoned (2015) HDRip XviD HDTurk - Türkçe Dublaj - Torrent İndir
(Okunma: 1401)
TD Suspect Man
#1
HDRip 
cXi67TM.jpg

j5MDH3b.png
Yapımı : 2015 - ABD
Tür : Gerilim ,  Gizem ,  Korku
Süre: 86 Dak.
Yönetmen : Eytan Rockaway
Oyuncular : Jason Patric ,  Mark Margolis ,  Carlos Velazquez ,  Louisa Krause ,  Henry Kelemen
Senaryo : Eytan Rockaway
Yapımcı : Carlos Velazquez ,  Allan Loeb

Streak, psikolojik çöküntü içinde olan genç bir kadındır. Güvenlik görevlisi olarak bir zamanlar lüks, şimdi terkedilmiş olan bir yerdeki mezarlıkta işe girer. Ama işinde ilk gecesinde, çürüyen binanın derinlerinde gizlenen korkunç bir varlığı keşfeder. Sinirleri zaten dağılmaya yüz tutmuş Streak, yerinde olmayan akıl sağlığını gerçekle hayal arasında tutmaya çalışır.
Kod:
Format                         : AVI
Format/Info                    : Audio Video Interleave
File size                      : 1.37 GiB
Duration                       : 1h 25mn
Overall bit rate               : 2 277 Kbps
Writing application            : VirtualDubMod 1.5.10.2 (build 2540/release)
Writing library                : VirtualDubMod build 2540/release

Video
ID                             : 0
Format                         : MPEG-4 Visual
Format profile                 : Advanced Simple@L5
Format settings, BVOP          : 1
Format settings, QPel          : No
Format settings, GMC           : No warppoints
Format settings, Matrix        : Default (H.263)
Muxing mode                    : Packed bitstream
Codec ID                       : XVID
Codec ID/Hint                  : XviD
Duration                       : 1h 25mn
Bit rate                       : 2 075 Kbps
Width                          : 720 pixels
Height                         : 384 pixels
Display aspect ratio           : 1.85:1
Frame rate                     : 23.976 fps
Color space                    : YUV
Chroma subsampling             : 4:2:0
Bit depth                      : 8 bits
Scan type                      : Progressive
Compression mode               : Lossy
Bits/(Pixel*Frame)             : 0.313
Stream size                    : 1.24 GiB (91%)
Writing library                : XviD 64

Audio
ID                             : 1
Format                         : AC-3
Format/Info                    : Audio Coding 3
Mode extension                 : CM (complete main)
Format settings, Endianness    : Big
Codec ID                       : 2000
Duration                       : 1h 25mn
Bit rate mode                  : Constant
Bit rate                       : 192 Kbps
Channel(s)                     : 2 channels
Channel positions              : Front: L R
Sampling rate                  : 48.0 KHz
Compression mode               : Lossy
Stream size                    : 118 MiB (8%)
Alignment                      : Split accross interleaves
Interleave, duration           : 42 ms (1.00 video frame)
Interleave, preload duration   : 500 ms
lFOnER3.png
ZkaJOz.jpg
b6WeH2N.png


Q0G88mc.png
"Ekli Dosyalar" kısmından indirebilirsiniz.

[hide]Filmi indirmek için TIKLAYINIZ.
En son filmleri ilk önce indirmek için "VİP" üye olunuz![/hide]

Önemli Not: Lütfen indirdiğiniz torrentleri yükleme işlemi bittikten sonra seed (gönderme) ediniz.
Yorum yapmayı unutmayınız. Emeğe karşı istediklerimizi yapmak zor değil.
Ek Dosyalar
.torrent   [TD] Terkedilmiş - The Abandoned (2015) HDRip XviD HDTurk - Türkçe Dublaj - Torrent İndir.torrent (Dosya Boyutu: 109.69 KB / İndirme Sayısı: 170)
Son Düzenleme: 10-04-2016, Saat: 14:29, Düzenleyen: TD Suspect Man
Cevapla
onergundogdu
#2
tesekkurler
Ara
Cevapla
ahmet0351
#3
teşekkürler
Ara
Cevapla
bluemavi79
#4
Teşekkürler.
Ara
Cevapla
ozansalvarcioglu
#5
teşekkürler
Ara
Cevapla
 


Anahtar Kelimeler

Terkedilmiş - The Abandoned (2015) HDRip XviD HDTurk - Türkçe Dublaj - Torrent İndir, Terkedilmiş - The Abandoned (2015) HDRip XviD HDTurk - Türkçe Dublaj - Torrent İndir indir, Terkedilmiş - The Abandoned (2015) HDRip XviD HDTurk - Türkçe Dublaj - Torrent İndir Videosu, Terkedilmiş - The Abandoned (2015) HDRip XviD HDTurk - Türkçe Dublaj - Torrent İndir online izle, Terkedilmiş - The Abandoned (2015) HDRip XviD HDTurk - Türkçe Dublaj - Torrent İndir Bedava indir, Terkedilmiş - The Abandoned (2015) HDRip XviD HDTurk - Türkçe Dublaj - Torrent İndir Yükle, Terkedilmiş - The Abandoned (2015) HDRip XviD HDTurk - Türkçe Dublaj - Torrent İndir Hakkında, Terkedilmiş - The Abandoned (2015) HDRip XviD HDTurk - Türkçe Dublaj - Torrent İndir nedir, Terkedilmiş - The Abandoned (2015) HDRip XviD HDTurk - Türkçe Dublaj - Torrent İndir Free indir, Terkedilmiş - The Abandoned (2015) HDRip XviD HDTurk - Türkçe Dublaj - Torrent İndir oyunu, Terkedilmiş - The Abandoned (2015) HDRip XviD HDTurk - Türkçe Dublaj - Torrent İndir download



Konu ile Alakalı Benzer Konular
Konular Yazar Yorumlar Okunma Son Yorum
Bdrip Lanetli Çocuk - The Boy - 2016 - Türkçe Dublaj - BDRip - Torrent İndir TD TavukSuyunaÇorba 2 117 Dün, Saat: 17:15
Son Yorum: herqul
Bluray Ölüm Alfabesi Kötülüğün Başlangıcı - 2016 - 1080P BluRay Türkçe Dublaj Torrent İndir TD TavukSuyunaÇorba 3 108 21-03-2017, Saat: 14:28
Son Yorum: osman0928
Bdrip Tüm Sırların Sahibi Kız - 2016 - Türkçe Dublaj - BDRip - Torrent İndir TD TavukSuyunaÇorba 4 160 20-03-2017, Saat: 21:46
Son Yorum: BAYM35
Bluray Lanetli Çocuk - The Boy - 2016 - 1080p - BluRay - Türkçe Dublaj - Torrent İndir TD TavukSuyunaÇorba 0 90 19-03-2017, Saat: 21:10
Son Yorum: TD TavukSuyunaÇorba
Bluray Lanetli Çocuk - The Boy - 2016 - 720p - BluRay - Türkçe Dublaj - Torrent İndir TD TavukSuyunaÇorba 0 50 19-03-2017, Saat: 21:08
Son Yorum: TD TavukSuyunaÇorba

Hızlı Menü:


Konuyu Okuyanlar: 1 Ziyaretçi